Download | Ready.Player.One.2018.3D.HSB... | Thomas Cocquerel
 
[ Сегодня идет свободное скачивание без начисления Download ]


Статистика раздачи
Скачал: [ 3 ]
 
   
 
 
 
 
Коллектор / Охотник за должниками / The Debt Collector (2017) HDRip- Производство: США / Tarzana Productions, Cohesive Entertainment Group (CEG), Compound B
Жанр: Боевик
Режиссер: Джесси Джонсон
Актеры: Скотт Эдкинс, Майкл Паре, Тони Тодд, Владимир Кулих, Роберт Раслер, Луис Мэндилор, Селина Ло, Нихан Гар, Сара Финли, Ессам Феррис
Описание:
Фильм повествует о мастере боевых искусств, который устраивается сборщиком долгов к местным бандитам. Работа выглядит незамысловато, пока однажды из-за своего клиента герой не впутывается в серьёзные проблемы.

Дата мировой премьеры: 26 апреля 2018
Продолжительность: 01:35:22
Качество видео: HDRip [sample]
Перевод: Многоголосый закадровый, любительский (MUZOBOZ)
Субтитры: Отсутствуют
Реклама: Присутствуют вставки текстовой рекламы
Видео: XviD, 720x304, ~1525 Kbps
Аудио: AC-3, 2 ch, 448 Kbps

MediaInfo:

Общее
Полное имя : E:\NNM\Коллектор\The debt collector 2018 HDRip.avi
Формат : AVI
Формат/Информация : Audio Video Interleave
Профиль формата : OpenDML
Размер файла : 1,32 Гбайт
Продолжительность : 1 ч. 35 м.
Общий поток : 1986 Кбит/сек
Видео
Идентификатор : 0
Формат : MPEG-4 Visual
Профиль формата : Advanced [email protected]
Настройки формата : BVOP2 / Custom Matrix
Параметр BVOP формата : 2
Параметр QPel формата : Нет
Параметр GMC формата : Без точки перехода
Параметр матрицы формата : Выборочная
Идентификатор кодека : XVID
Идентификатор кодека/Подсказка : XviD
Продолжительность : 1 ч. 35 м.
Битрейт : 1525 Кбит/сек
Ширина : 720 пикселей
Высота : 304 пикселя
Соотношение сторон : 2,35:1
Частота кадров : 23,976 (24000/1001) кадра/сек
Цветовое пространство : YUV
Субдискретизация насыщенности : 4:2:0
Битовая глубина : 8 бит
Тип развёртки : Прогрессивная
Метод сжатия : С потерями
Бит/(Пиксели*Кадры) : 0.291
Размер потока : 1,02 Гбайт (77%)
Библиотека кодирования : XviD 1.2.1 (UTC 2008-12-04)
Аудио
Идентификатор : 1
Формат : AC-3
Формат/Информация : Audio Coding 3
Идентификатор кодека : 2000
Продолжительность : 1 ч. 35 м.
Вид битрейта : Постоянный
Битрейт : 448 Кбит/сек
Каналы : 2 канала
Расположение каналов : Front: L R
Частота : 48,0 КГц
Частота кадров : 31,250 кадров/сек (1536 SPF)
Битовая глубина : 16 бит
Метод сжатия : С потерями
Размер потока : 306 Мбайт (23%)
Выравнивание : Соединение по промежуткам
Продолжительность промежутка : 32 мс. (0,77 видеокадр)
ServiceKind/String : Complete Main
Скриншоты:

[Цитировать]



Показать сообщения:    

Текущее время: 16-Авг 04:42

Часовой пояс: UTC + 6


Вы не можете начинать темы
Вы не можете отвечать на сообщения
Вы не можете редактировать свои сообщения
Вы не можете удалять свои сообщения
Вы не можете голосовать в опросах
Вы не можете прикреплять файлы к сообщениям
Вы не можете скачивать файлы

!ВНИМАНИЕ!
Сайт не предоставляет электронные версии произведений, а занимается лишь коллекционированием и каталогизацией ссылок, присылаемых и публикуемых на форуме нашими читателями. Если вы являетесь правообладателем какого-либо представленного материала и не желаете, чтобы ссылка на него находилась в нашем каталоге, свяжитесь с нами, и мы незамедлительно удалим ее. Файлы для обмена на трекере предоставлены пользователями сайта, и администрация не несет ответственности за их содержание. Просьба не заливать файлы, защищенные авторскими правами, а также файлы нелегального содержания!